Loading...
Error

100% Волк / 100% Wolf (Алекс Стадерманн / Alexs Stadermann) [2020 г., mультфильм, фэнтези, комедия, приключения, семейный, WEB-DL 1080p] MVO (@MUZOBOZ@) + Original (Eng) + Sub (Eng)

Статистика раздачи
Размер:  4,85 GB   |    Зарегистрирован:  29 дней   |    Скачан:  20 раз
Сидов:  3  |  40 KB/s  ]   Личеров:  0  |  0 KB/s  ]

* - сиды/пиры с внешних источников

   
 
Автор Сообщение

90ytr90 

14-Мар-2021 21:14

100% Волк / 100% Wolf
«Каждая собака в душе волк»

Страна: Австралия
Год выпуска: 2020
Жанр: mультфильм, фэнтези, комедия, приключения, семейный
Продолжительность: 01:37:08
Озвучивание:
  • любительское (многоголосое закадровое) [@MUZOBOZ@]
  • оригинальная звуковая дорожка [английский]

Режиссёр: Алекс Стадерманн / Alexs Stadermann

В ролях:
    Адриан Дафф, Акмаль Сале, Алекс Стадерманн, Кэм Ральф, Илай Суинделлс, Джай Кортни, Джеймс Марш, Джейн Линч, Дженна Сафферн, Джерра Райт-Смит


Сюжет фильма:
    История о Фредди Люпине, наследнике семьи оборотней. Отчаянно желая стать оборотнем, Фредди шокирован, когда в свой 13-й день рождения он оборачивается не волком, а… пуделем.

  • Дата мировой премьеры: 19 марта 2020
  • Дата российской премьеры: 8 апреля 2021, «Ten Letters», «Наше Кино»
             
Качество видео: WEB-DL 1080p
Формат: MKV
Видео: AVC, 1920x1080 (16:9), 6396 kbps, 23.976 (24000/1001) fps, 0.129 bit/pixel
Аудио #1: AC3, 192 kbps, 2 ch, 48 kHz, MVO [@MUZOBOZ@]
Аудио #2: E-AC3, 640 kbps, 6 ch, 48 kHz, Original [English]
Субтитры: English (SDH)
Общее 
Уникальный идентификатор : 40024917800442133915557377901581964546 (0x1E1C84CE33024E30B918AC4FC2FE1502)
Полное имя : C:\Downloads100% Wolf_2020 WEB-DL (1080p).mkv
Формат : Matroska
Версия формата : Version 4
Размер файла : 4,85 Гбайт
Продолжительность : 1 ч. 36 м.
Общий поток : 7 230 Кбит/сек
Название фильма : 100% Wolf_2020 WEB-DL (1080p)
Дата кодирования : UTC 2021-03-14 20:35:52
Программа кодирования : mkvmerge v53.0.0 ('Fool's Gold') 64-bit
Библиотека кодирования : libebml v1.4.1 + libmatroska v1.6.2

Видео
Идентификатор : 1
Формат : AVC
Формат/Информация : Advanced Video Codec
Профиль формата : High@L4
Настройки формата : CABAC / 4 Ref Frames
Параметр CABAC формата : Да
Параметр RefFrames формата : 4 кадра
Идентификатор кодека : V_MPEG4/ISO/AVC
Продолжительность : 1 ч. 36 м.
Вид битрейта : Постоянный
Битрейт : 6 396 Кбит/сек
Номинальный битрейт : 10 000 Кбит/сек
Ширина : 1 920 пикселей
Высота : 1 080 пикселей
Соотношение сторон : 16:9
Режим частоты кадров : Постоянный
Частота кадров : 23,976 (24000/1001) кадра/сек
Цветовое пространство : YUV
Субдискретизация насыщенности : 4:2:0
Битовая глубина : 8 бит
Тип развёртки : Прогрессивная
Бит/(Пиксели*Кадры) : 0.129
Размер потока : 4,29 Гбайт (88%)
Default : Да
Forced : Нет
Цветовой диапазон : Limited
Основные цвета : BT.709
Характеристики трансфера : BT.709
Коэффициенты матрицы : BT.709

Аудио #1
Идентификатор : 2
Формат : AC-3
Формат/Информация : Audio Coding 3
Коммерческое название : Dolby Digital
Идентификатор кодека : A_AC3
Продолжительность : 1 ч. 36 м.
Вид битрейта : Постоянный
Битрейт : 192 Кбит/сек
Каналы : 2 канала
Channel layout : L R
Частота : 48,0 КГц
Частота кадров : 31,250 кадров/сек (1536 SPF)
Метод сжатия : С потерями
Размер потока : 132 Мбайт (3%)
Заголовок : MUZOBOZ | KinoPub
Язык : Russian
Service kind : Complete Main
Default : Да
Forced : Нет

Аудио #2
Идентификатор : 3
Формат : E-AC-3
Формат/Информация : Enhanced AC-3
Коммерческое название : Dolby Digital Plus
Идентификатор кодека : A_EAC3
Продолжительность : 1 ч. 36 м.
Вид битрейта : Постоянный
Битрейт : 640 Кбит/сек
Каналы : 6 каналов
Channel layout : L R C LFE Ls Rs
Частота : 48,0 КГц
Частота кадров : 31,250 кадров/сек (1536 SPF)
Метод сжатия : С потерями
Размер потока : 440 Мбайт (9%)
Заголовок : English
Язык : English
Service kind : Complete Main
Default : Нет
Forced : Нет

Текст
Идентификатор : 4
Формат : UTF-8
Идентификатор кодека : S_TEXT/UTF8
Идентификатор кодека/Информация : UTF-8 Plain Text
Продолжительность : 1 ч. 34 м.
Битрейт : 61 бит/сек
Count of elements : 2110
Размер потока : 42,4 Кбайт (0%)
Заголовок : English [SDH]
Язык : English
Default : Нет
Forced : Нет


pic pic pic pic pic pic

Этот торрент недоступен для скачивания без регистрации, однако доступен по публичной magnet-ссылке (источники с публичных трекеров). Перед использованием ссылки прочтите, пожалуйста Пользовательское соглашение, а также как можно дольше оставайтесь на раздаче! Для того, чтобы скачать сам торрент-файл (который видит больше источников), а также для того, чтобы поблагодарить релизера, вам необходимо зарегистрироваться. Если регистрироваться лень - вы можете также попробовать скачать релиз по нашим партнерским ссылкам ниже. Кроме того, зарегистрированным пользователям не показывается всплывающая реклама при скачивании.

[underver.se].t202025.torrent
Трекер: Зарегистрирован   [ 14.03.2021 21:14 ]  

Статус: проверено (by 90ytr90 at 15.03.2021 11:56)
Поблагодарили: 1 человек
Тип торрента: публичный - доступные источники с открытых трекеров: 
Размер: 4,85 GB (занимает 1,11 DVDR, для записи нужно 2 болванки DVDR/RW)
 
 

Яндекс.Метрика powered by Sphinx


В Н И М А Н И Е
Сайт не распространяет и не хранит электронные версии произведений, а лишь бесплатно и без коммерческой выгоды (не требуя взамен платы,
SMS и т.д.) предоставляет доступ к создаваемому пользователями каталогу ссылок на торрент-файлы, которые содержат только списки хеш-сумм.
Убедительная просьба с жалобами обращаться напрямую к пользователю, разместившему торрент файл.

Вверх